<?xml version="1.0" standalone="no"?>
<!DOCTYPE svg PUBLIC "-//W3C//DTD SVG 1.1//EN" "http://www.w3.org/Graphics/SVG/1.1/DTD/svg11.dtd" >
<svg xmlns="http://www.w3.org/2000/svg">
<metadata>Generated by IcoMoon</metadata>
<defs>
<font id="osfonts" horiz-adv-x="512">
<font-face units-per-em="512" ascent="480" descent="-32" />
<missing-glyph horiz-adv-x="512" />
<glyph unicode="&#x20;" d="" horiz-adv-x="256" />
<glyph unicode="&#xe600;" d="M214.588 227.49c5.68 0 10.476 2.239 14.179 6.476 5.825 6.611 8.381 17.484 6.863 29.035-2.719 20.654-17.448 37.804-32.846 38.256h-0.614c-5.455 0-10.304-2.221-14.007-6.457-5.753-6.548-8.155-16.897-6.647-28.412 2.701-20.618 17.746-38.437 32.828-38.897h0.244zM231.395 165.293c-1.517 1.021-3.089 2.095-4.705 3.206-4.742 1.463-9.79 2.221-14.938 2.294h-0.65c-23.707 0-44.514-14.377-44.514-30.76 0-17.8 17.809-31.772 40.559-31.772 30.001 0 45.209 10.341 45.209 30.742 0 1.942-0.226 3.938-0.686 5.925-2.032 7.947-9.302 12.887-20.275 20.365zM256.005 433.426c-122.832 0-222.391-99.55-222.391-222.373s99.568-222.391 222.391-222.391c122.805 0 222.373 99.568 222.373 222.391s-99.577 222.373-222.373 222.373zM235.766 90.046c-8.869-2.556-18.433-3.865-28.484-3.865-11.18 0-21.946 1.291-31.97 3.829-19.417 4.886-33.776 14.179-40.459 26.145-2.89 5.184-4.353 10.693-4.353 16.401 0 5.889 1.409 11.849 4.181 17.764 10.656 22.668 38.68 37.904 69.738 37.904 0.316 0 0.614 0 0.903 0-2.519 4.444-3.757 9.049-3.757 13.881 0 2.421 0.316 4.868 0.948 7.351-32.566 0.759-56.95 24.609-56.95 56.056 0 22.226 17.746 43.846 43.132 52.597 7.604 2.628 15.344 3.964 22.966 3.964h69.657c2.384 0 4.462-1.535 5.202-3.793 0.759-2.276-0.072-4.741-1.996-6.141l-15.579-11.271c-0.939-0.668-2.068-1.038-3.224-1.038h-5.572c7.216-8.625 11.433-20.916 11.433-34.752 0-15.271-7.721-29.703-21.765-40.694-10.846-8.453-11.289-10.756-11.289-15.615 0.144-2.664 7.713-11.307 16.030-17.195 19.435-13.755 26.669-27.219 26.669-49.743 0-23.435-17.854-43.774-45.463-51.784zM393.106 209.536c0-3.017-2.466-5.464-5.482-5.464h-39.584v-39.601c0-3.034-2.447-5.482-5.482-5.482h-11.271c-3.034 0-5.482 2.447-5.482 5.482v39.601h-39.611c-2.998 0-5.464 2.447-5.464 5.464v11.289c0 3.017 2.466 5.482 5.464 5.482h39.601v39.583c0 3.034 2.447 5.482 5.482 5.482h11.271c3.034 0 5.482-2.447 5.482-5.482v-39.584h39.584c3.017 0 5.482-2.466 5.482-5.482v-11.289z" />
<glyph unicode="&#xe602;" d="M347.805 259.714v40.974l-40.974-0.144 0.135-40.965zM254.903 165.103c23.463 0 42.564 19.082 42.564 42.546 0 9.257-3.017 17.837-8.065 24.817-7.721 10.711-20.302 17.746-34.499 17.746s-26.759-7.035-34.499-17.746c-5.048-6.981-8.047-15.56-8.047-24.817 0-23.463 19.083-42.546 42.546-42.546zM256.014 433.418c-122.823 0-222.391-99.55-222.391-222.373 0-122.823 99.568-222.391 222.391-222.391 122.805 0 222.373 99.568 222.373 222.391 0 122.823-99.577 222.373-222.373 222.373zM375.793 232.466v-98.99c0-25.757-20.97-46.709-46.727-46.709h-148.336c-25.766 0-46.718 20.952-46.718 46.709v148.336c0 25.765 20.952 46.718 46.718 46.718h148.336c25.757 0 46.727-20.952 46.727-46.718v-49.346zM321.010 207.649c0-36.44-29.649-66.108-66.108-66.108s-66.089 29.667-66.089 66.108c0 8.788 1.743 17.141 4.85 24.817h-36.089v-98.99c0-12.77 10.386-23.156 23.155-23.156h148.336c12.77 0 23.156 10.386 23.156 23.156v98.99h-36.106c3.134-7.677 4.895-16.039 4.895-24.817z" />
<glyph unicode="&#xe603;" d="M343.462 233.839c-28.664 0-32.647-28.611-32.647-28.611h60.942c0 0 0.389 28.611-28.295 28.611zM205.196 205.229h-54.024v-49.599h47.828c0.813 0 2.032-0.018 3.459 0 7.695 0.18 22.279 2.421 22.279 24.113 0 25.748-19.543 25.486-19.543 25.486zM256.014 433.933c-122.823 0-222.391-99.55-222.391-222.373s99.568-222.391 222.391-222.391c122.805 0 222.373 99.568 222.373 222.391 0 122.814-99.577 222.373-222.373 222.373zM302.822 297.292h76.557v-22.849h-76.557v22.849zM264.123 177.431c0-56.634-58.928-54.764-58.928-54.764h-96.561v185.553h96.561c29.333 0 52.488-16.202 52.488-49.4 0-33.198-28.313-35.311-28.313-35.311 37.325 0 34.752-46.077 34.752-46.077zM407.339 180.466h-96.154c0-34.462 32.647-32.295 32.647-32.295 30.832 0 29.757 19.968 29.757 19.968h32.666c0-52.986-63.515-49.355-63.515-49.355-76.187 0-71.283 70.94-71.283 70.94s-0.072 71.282 71.283 71.282c75.111 0 64.6-80.539 64.6-80.539zM218.317 255.939c0 19.299-13.122 19.299-13.122 19.299h-54.024v-41.399h50.673c8.742 0 16.472 2.809 16.472 22.099z" />
<glyph unicode="&#xe606;" d="M256.014 433.418c-122.823 0-222.391-99.55-222.391-222.373 0-122.823 99.568-222.391 222.391-222.391 122.805 0 222.373 99.568 222.373 222.391 0 122.823-99.577 222.373-222.373 222.373zM106.992 180.854c-0.1-0.704-0.614-1.201-1.246-1.201-0.65 0-1.156 0.497-1.246 1.201l-2.276 17.024 2.276 17.303c0.091 0.723 0.596 1.238 1.246 1.238 0.632 0 1.147-0.515 1.246-1.238l2.701-17.303-2.701-17.024zM118.56 170.495c-0.109-0.74-0.641-1.255-1.3-1.255s-1.201 0.533-1.3 1.274l-3.061 27.355 3.061 27.996c0.091 0.722 0.641 1.256 1.3 1.256s1.192-0.515 1.3-1.256l3.477-27.996-3.477-27.373zM131.069 165.863c-0.090-0.867-0.75-1.517-1.563-1.517-0.822 0-1.481 0.65-1.563 1.536l-2.908 31.997 2.908 33.198c0.082 0.903 0.74 1.554 1.563 1.554 0.804 0 1.472-0.65 1.563-1.554l3.305-33.198-3.305-32.015zM143.675 164.869c-0.090-1.038-0.876-1.797-1.825-1.797-0.966 0-1.761 0.759-1.833 1.797l-2.745 32.99 2.755 34.111c0.072 1.038 0.858 1.815 1.833 1.815 0.948 0 1.725-0.776 1.825-1.797l3.115-34.129-3.125-32.99zM156.382 164.589c-0.082-1.183-0.976-2.068-2.086-2.068-1.129 0-2.032 0.885-2.095 2.068l-2.592 33.271 2.592 31.645c0.072 1.183 0.966 2.077 2.095 2.077 1.111 0 2.014-0.885 2.086-2.050l2.944-31.681-2.944-33.262zM169.197 164.571v0.018c-0.072-1.318-1.111-2.348-2.357-2.348-1.256 0-2.294 1.021-2.357 2.33l-2.439 33.288 2.439 51.487c0.063 1.31 1.102 2.33 2.357 2.33 1.246 0 2.285-1.020 2.357-2.33l2.763-51.487-2.763-33.288zM182.103 164.769v0.018c-0.072-1.463-1.219-2.592-2.628-2.592s-2.565 1.129-2.628 2.574l-2.276 33.072 2.276 63.272c0.063 1.463 1.219 2.592 2.628 2.592s2.556-1.129 2.628-2.592l2.574-63.272-2.574-33.072zM195.117 165.103v0.018c-0.072-1.608-1.337-2.854-2.89-2.854-1.571 0-2.836 1.255-2.89 2.836l-2.123 32.738 2.123 68.546c0.054 1.608 1.319 2.872 2.89 2.872 1.554 0 2.817-1.274 2.89-2.872l2.393-68.546-2.393-32.738zM208.23 165.329v-0.018c-0.072-1.761-1.445-3.125-3.161-3.125s-3.107 1.373-3.161 3.106l-1.959 32.548 1.959 70.858c0.054 1.761 1.445 3.125 3.161 3.125s3.107-1.354 3.161-3.125l2.213-70.858-2.213-32.53c0 0 0 0 0 0.018zM221.442 165.61v0.018c-0.054-1.906-1.554-3.423-3.423-3.423-1.879 0-3.387 1.517-3.423 3.404l-1.806 32.223 1.806 69.043c0.036 1.905 1.544 3.404 3.423 3.404 1.869 0 3.369-1.481 3.423-3.404l2.032-69.043-2.032-32.223zM234.755 165.808v0.036c-0.054-2.068-1.68-3.685-3.685-3.685-2.032 0-3.649 1.625-3.694 3.649l-1.653 32.015 1.653 66.532c0.045 2.068 1.671 3.666 3.694 3.666 2.014 0 3.631-1.607 3.685-3.649l1.843-66.55-1.843-32.015zM248.166 166.016v0.018c-0.036-2.168-1.815-3.955-3.956-3.955-2.149 0-3.919 1.779-3.956 3.938 0 0-1.499 31.772-1.499 31.817l1.499 79.149c0.036 2.167 1.797 3.938 3.956 3.938 2.131 0 3.919-1.77 3.956-3.938l1.671-79.166-1.671-31.798zM261.514 166.459v0.036c-0.036-2.312-1.923-4.2-4.217-4.2s-4.2 1.887-4.226 4.181l-1.725 31.347 1.725 86.329c0.027 2.321 1.933 4.218 4.226 4.218s4.182-1.897 4.217-4.209l1.887-86.338-1.887-31.365zM375.522 162.015c-0.678 0-106.151 0.036-106.251 0.054-2.294 0.226-4.109 2.185-4.146 4.534v121.649c0.036 2.24 0.795 3.387 3.693 4.515 7.442 2.872 15.868 4.588 24.529 4.588 35.329 0 64.293-27.103 67.345-61.647 4.56 1.905 9.582 2.962 14.829 2.962 21.178 0 38.337-17.141 38.337-38.328 0-21.169-17.159-38.328-38.337-38.328z" />
<glyph unicode="&#xe607;" d="M256.014 433.418c-122.814 0-222.391-99.55-222.391-222.391 0-91.051 54.755-169.279 133.109-203.679-0.623 15.543-0.108 34.164 3.875 51.062 4.272 18.062 28.611 121.18 28.611 121.18s-7.107 14.197-7.107 35.185c0 32.946 19.101 57.555 42.888 57.555 20.23 0 30.002-15.19 30.002-33.37 0-20.338-12.977-50.745-19.642-78.913-5.563-23.599 11.831-42.844 35.104-42.844 42.13 0 70.515 54.115 70.515 118.235 0 48.741-32.828 85.226-92.532 85.226-67.463 0-109.484-50.303-109.484-106.495 0-19.38 5.716-33.036 14.666-43.62 4.109-4.849 4.687-6.81 3.197-12.382-1.065-4.091-3.513-13.953-4.524-17.854-1.481-5.644-6.042-7.659-11.136-5.572-31.067 12.68-45.544 46.709-45.544 84.964 0 63.163 53.275 138.916 158.939 138.916 84.892 0 140.776-61.447 140.776-127.401 0-87.222-48.488-152.4-119.978-152.4-24.014 0-46.601 12.986-54.331 27.707 0 0-12.915-51.243-15.642-61.123-4.714-17.159-13.953-34.291-22.388-47.639 20.004-5.906 41.127-9.122 63.028-9.122 122.805 0 222.373 99.55 222.373 222.373-0.009 122.85-99.586 222.4-222.381 222.4z" />
<glyph unicode="&#xe60a;" d="M256.005 433.426c-122.823 0-222.391-99.55-222.391-222.381 0-122.823 99.559-222.391 222.391-222.391 122.841 0 222.391 99.568 222.391 222.391 0 122.832-99.559 222.381-222.391 222.381zM408.151 163.975h-289.455v69.548h32.223v-37.325h224.992v37.326h32.241v-69.549z" />
<glyph unicode="&#xe60f;" d="M306.028 186.092h-84.757c-7.957 0-14.395-6.385-14.395-14.305 0-7.776 6.439-14.341 14.395-14.341h84.757c7.921 0 14.324 6.565 14.324 14.341 0 7.921-6.403 14.305-14.324 14.305zM221.271 243.476h41.715c7.957 0 14.413 6.548 14.413 14.413 0 7.884-6.457 14.377-14.413 14.377h-41.714c-7.957 0-14.395-6.493-14.395-14.377 0-7.875 6.439-14.413 14.395-14.413zM256.005 433.426c-122.823 0-222.391-99.55-222.391-222.381 0-122.823 99.559-222.391 222.391-222.391 122.841 0 222.391 99.568 222.391 222.391 0 122.832-99.559 222.381-222.391 222.381zM381.979 170.676c-0.226-41.308-33.849-75.138-75.229-75.138h-86.428c-41.389 0-75.211 33.831-75.211 75.139v87.791c0 41.399 33.822 75.301 75.211 75.301h52.597c19.435-2.312 47.693-18.947 58.124-41.082 2.854-6.196 4.371-7.161 6.737-25.567 1.291-9.474 1.942-16.472 6.178-20.356 5.942-5.418 28.077-1.779 32.44-5.184l3.368-2.628 1.996-4.145 0.687-3.315-0.469-60.816z" />
<glyph unicode="&#xe610;" d="M176.802 122.983c12.192 0 22.785 8.363 23.111 18.306 0.334 9.808-9.546 18.613-21.576 19.227l-12.824 0.687c-33.677 1.725-61.105 29.902-61.105 62.703 0 33.406 27.924 60.608 62.233 60.608h84.188c34.327 0 62.233-27.924 62.233-62.252v-77.487c0-12.029 9.789-21.801 21.837-21.801h10.178c12.029 0 21.837 9.772 21.837 21.801v259.003c-32.666 18.821-70.524 29.649-110.911 29.649-122.823 0-222.391-99.55-222.391-222.382 0-31.311 6.493-61.068 18.153-88.072h125.036zM407.293 374.002v-229.219c0-34.291-27.906-62.197-62.215-62.197h-10.178c-34.309 0-62.233 27.906-62.233 62.197v77.487c0 12.048-9.275 22.352-21.322 22.352h-84.188c-12.048 0-22.352-9.564-22.352-20.708 0-11.497 10.458-21.765 22.821-22.388l12.824-0.687c34.047-1.743 60.887-29.071 59.831-60.87-1.075-31.645-29.541-57.383-63.48-57.383h-102.286c40.306-56.815 106.54-93.923 181.489-93.923 122.823 0 222.391 99.568 222.391 222.391 0 64.382-27.401 122.326-71.102 162.948z" />
<glyph unicode="&#xe611;" d="M437.918 289.904c0-50.979-53.793-92.307-120.149-92.307s-120.149 41.327-120.149 92.307c0 50.979 53.793 92.307 120.149 92.307 66.357 0 120.149-41.327 120.149-92.307zM397.892 146.265c-0.867-0.37-1.743-0.687-2.61-1.021-1.978-0.776-3.955-1.536-5.961-2.24-1.572-0.551-3.161-1.057-4.741-1.608-1.337-0.406-2.664-0.867-4.001-1.291-1.851-0.551-3.739-1.075-5.608-1.589-1.129-0.298-2.24-0.614-3.368-0.903-2.014-0.551-4.037-1.002-6.087-1.481-1.021-0.207-2.050-0.461-3.070-0.65-2.132-0.442-4.272-0.885-6.421-1.255-0.985-0.18-1.996-0.334-2.981-0.515-2.185-0.37-4.371-0.704-6.584-0.985-1.038-0.163-2.077-0.262-3.125-0.389-2.168-0.262-4.353-0.515-6.565-0.687-1.219-0.144-2.438-0.18-3.649-0.28-2.032-0.144-4.073-0.298-6.123-0.389-2.312-0.091-4.642-0.144-6.954-0.163-0.939-0.018-1.851-0.072-2.808-0.072-0.036 0-0.091 0-0.127 0-0.072 0-0.144 0-0.207 0-4.66 0-9.257 0.18-13.844 0.461-0.37 0.054-0.759 0.054-1.129 0.091-14.495 0.966-28.538 3.296-41.931 6.918l-89.462-53.672 9.618 96.236c-31.645 28.43-51.080 66.695-51.080 108.834 0 0.108 0.018 0.208 0.018 0.298 0 0.144-0.018 0.226-0.018 0.334 0 45.86 23.084 86.942 59.624 116.014h0.758c13.366 10.476 28.593 19.299 45.156 26.127-112.763-10.774-200.969-105.727-200.969-221.334 0-122.823 99.568-222.391 222.391-222.391 121.974 0 220.982 98.231 222.318 219.907-18.92-26.921-46.899-48.741-80.458-62.305z" />
<glyph unicode="&#xe613;" d="M256.014 433.426c-122.823 0-222.391-99.55-222.391-222.381 0-122.823 99.568-222.391 222.391-222.391 122.805 0 222.373 99.568 222.373 222.391 0 122.832-99.577 222.381-222.373 222.381zM255.995 369.315c22.298 0 43.864-4.724 64.202-13.971 0-2.204 0-96.651 0-103.813-5.329 4.832-114.442 103.894-118.57 107.623 17.565 6.575 35.809 10.16 54.367 10.16zM100.326 213.628c0 58.684 32.467 111.588 84.739 138.438 1.761-1.643 56.282-51.098 58.91-53.482-2.719-2.465-133.778-121.567-137.986-125.397-3.648 13.474-5.662 27.084-5.662 40.442zM175.863 80.645c-29.071 17.601-51.839 44.117-64.32 75.428 1.797 1.625 59.118 53.726 64.32 58.459 0-7.18 0-127.763 0-133.886zM270.192 58.6h-28.556c-17.023 1.608-33.587 5.978-49.427 13.068 0 2.24 0 71.065 0 74.317 3.351 0 198.016 0 203.624 0-23.86-49.219-71.861-82.355-125.64-87.385zM402.832 162.368c-2.447 0-63.037 0-66.252 0 0 3.332 0 177.894 0 184.063 46.32-28.186 75.084-78.706 75.084-132.811 0.009-17.439-3.043-34.653-8.832-51.252z" />
<glyph unicode="&#xe614;" d="M256.005 433.445c-122.823 0-222.391-99.568-222.391-222.391 0-122.841 99.559-222.391 222.391-222.391 122.841 0 222.391 99.55 222.391 222.391 0 122.823-99.559 222.391-222.391 222.391zM187.034 110.719c-16.148 0-29.233 13.104-29.233 29.243 0 16.156 13.086 29.243 29.233 29.243 16.138 0 29.243-13.086 29.243-29.243 0-16.13-13.104-29.243-29.243-29.243zM260.394 110.529c0 27.608-10.675 53.536-30.073 72.99-19.353 19.453-45.083 30.182-72.501 30.182v42.212c79.835 0 144.768-65.231 144.768-145.382h-42.193zM334.954 110.493c0 98.141-79.428 178.012-177.064 178.012v42.23c120.9 0 219.275-98.819 219.275-220.242h-42.212z" />
<glyph unicode="&#xe615;" d="M143.468 325.036h109.873v-109.863h-109.873v109.863zM253.34 215.181h109.872v-109.873h-109.873v109.873zM256.005 433.445c-122.823 0-222.391-99.568-222.391-222.391 0-122.841 99.559-222.391 222.391-222.391 122.823 0 222.391 99.55 222.391 222.391 0 122.823-99.577 222.391-222.391 222.391zM373.228 100.279c0-2.755-2.24-5.012-5.012-5.012h-229.751c-2.773 0-5.022 2.258-5.022 5.012v229.769c0 2.773 2.249 5.030 5.022 5.030h229.76c2.772 0 5.012-2.258 5.012-5.030v-229.769z" />
<glyph unicode="&#xe616;" d="M161.052 192.332h16.102v-79.988h15.56v79.988h16.084v13.619h-47.748zM256.601 258.802c2.113 0 3.793 0.56 5.031 1.707 1.238 1.183 1.87 2.79 1.87 4.813v41.452c0 1.661-0.632 3.017-1.906 4.019-1.274 1.038-2.926 1.553-4.994 1.553-1.887 0-3.423-0.515-4.624-1.553-1.183-1.002-1.761-2.366-1.761-4.019v-41.452c0-2.077 0.551-3.685 1.661-4.813 1.093-1.147 2.682-1.707 4.724-1.707zM290.909 182.245c-2.149 0-4.272-0.551-6.367-1.644-2.068-1.093-4.055-2.719-5.906-4.813v30.164h-13.953v-93.608h13.953v5.292c1.797-2.132 3.775-3.685 5.889-4.696 2.095-1.002 4.515-1.499 7.234-1.499 4.073 0 7.234 1.291 9.365 3.901 2.168 2.628 3.26 6.367 3.26 11.252v38.328c0 5.663-1.147 9.971-3.477 12.897-2.294 2.944-5.627 4.425-9.998 4.425zM290.151 128.5c0-2.221-0.406-3.793-1.201-4.76-0.795-0.985-2.032-1.463-3.721-1.463-1.165 0-2.258 0.262-3.332 0.74-1.057 0.478-2.168 1.318-3.26 2.438v43.024c0.939 0.966 1.887 1.68 2.836 2.113 0.949 0.478 1.942 0.687 2.926 0.687 1.851 0 3.296-0.596 4.308-1.779 0.966-1.219 1.445-2.981 1.445-5.329v-35.673zM240.48 128.925c-1.292-1.481-2.719-2.7-4.272-3.685-1.554-0.966-2.854-1.445-3.847-1.445-1.31 0-2.239 0.352-2.836 1.093-0.56 0.723-0.867 1.906-0.867 3.531v52.986h-13.791v-57.754c0-4.127 0.813-7.161 2.421-9.257 1.643-2.050 4.019-3.070 7.216-3.070 2.592 0 5.274 0.704 8.029 2.185 2.755 1.499 5.4 3.613 7.957 6.403v-7.568h13.809v69.052h-13.809v-52.471zM256.005 433.445c-122.823 0-222.391-99.568-222.391-222.391 0-122.841 99.568-222.391 222.391-222.391 122.823 0 222.391 99.55 222.391 222.391 0 122.823-99.577 222.391-222.391 222.391zM291.93 323.608h15.524v-58.332c0-1.815 0.352-3.107 1.002-3.901 0.632-0.813 1.698-1.238 3.161-1.238 1.129 0 2.574 0.551 4.335 1.608 1.725 1.093 3.332 2.447 4.777 4.127v57.736h15.56v-76.078h-15.56v8.399c-2.836-3.089-5.825-5.464-8.941-7.072-3.089-1.607-6.087-2.439-9.013-2.439-3.594 0-6.295 1.147-8.128 3.423-1.797 2.239-2.719 5.626-2.719 10.196v63.57zM234.221 306.214c0 5.87 2.077 10.566 6.258 14.098 4.2 3.459 9.826 5.22 16.879 5.22 6.439 0 11.695-1.851 15.822-5.518 4.091-3.667 6.141-8.435 6.141-14.251v-39.286c0-6.529-2.014-11.623-6.014-15.308-4.055-3.685-9.591-5.536-16.654-5.536-6.792 0-12.237 1.905-16.319 5.698-4.073 3.847-6.123 8.995-6.123 15.452v39.43zM191.883 350.648l11.361-41.2h1.111l10.81 41.2h17.782l-20.356-60.346v-42.781h-17.502v40.875l-20.834 62.251h17.629zM395.435 133.603c0-27.518-22.316-49.851-49.834-49.851h-173.18c-27.536 0-49.852 22.334-49.852 49.851v40.080c0 27.536 22.316 49.851 49.852 49.851h173.18c27.518 0 49.834-22.316 49.834-49.851v-40.080zM332.588 183.111c-6.195 0-11.199-1.87-15.118-5.663-3.901-3.757-5.87-8.661-5.87-14.603v-31.049c0-6.665 1.797-11.885 5.346-15.66 3.549-3.793 8.417-5.699 14.603-5.699 6.882 0 12.048 1.779 15.488 5.346 3.495 3.594 5.202 8.923 5.202 16.012v3.549h-14.197v-3.143c0-4.073-0.478-6.701-1.373-7.884s-2.502-1.779-4.796-1.779c-2.204 0-3.757 0.687-4.678 2.077-0.903 1.427-1.337 3.938-1.337 7.586v12.995h26.389v17.637c0 6.529-1.68 11.533-5.075 15.046-3.404 3.486-8.272 5.229-14.585 5.229zM338.043 155.946h-12.192v6.981c0 2.89 0.442 4.994 1.409 6.195 0.966 1.291 2.538 1.906 4.741 1.906 2.077 0 3.649-0.614 4.588-1.906 0.949-1.201 1.445-3.296 1.445-6.195v-6.981z" />
<glyph unicode="&#xe619;" d="M256.005 433.445c-122.823 0-222.391-99.568-222.391-222.391 0-122.841 99.559-222.391 222.391-222.391 122.841 0 222.391 99.55 222.391 222.391 0 122.823-99.559 222.391-222.391 222.391zM333.546 88.024c-11.957-5.608-22.786-9.582-32.494-11.849-9.717-2.276-20.193-3.404-31.464-3.404-12.806 0-20.356 1.608-30.2 4.813-9.826 3.242-18.225 7.884-25.151 13.827-6.963 5.997-11.768 12.382-14.468 19.101-2.682 6.737-4.019 16.509-4.019 29.333v98.195h-38.039v39.656c11 3.567 23.752 8.697 31.572 15.371 7.884 6.683 14.161 14.694 18.911 24.059 4.742 9.329 8.029 21.223 9.808 35.682h39.827v-64.789h64.735v-49.978h-64.735v-71.806c0-16.247-0.207-25.612 1.499-30.2s5.997-9.347 10.675-12.101c6.214-3.702 13.267-5.572 21.259-5.572 14.179 0 28.276 4.624 42.301 13.827v-44.162z" />
<glyph unicode="&#xe61a;" d="M256.005 433.445c-122.823 0-222.391-99.568-222.391-222.391 0-122.841 99.568-222.391 222.391-222.391 122.823 0 222.391 99.55 222.391 222.391 0 122.823-99.577 222.391-222.391 222.391zM353.703 252.506c-7.695-2.068-77.911-56.3-82.535-69.639-1.021-4.606 0.108-49.175 1.129-55.867 4.624-1.038 38.030-0.144 44.171-1.165l-0.759-13.772c-5.978 0.461-48.434 0.352-72.673 0.352-12.291 0-51.856-1.354-64.012-1.002l2.303 13.122c6.665 0.478 34.246-1.238 40.297 5.184 3.017 3.206 2.068 45.58 1.056 52.742-2.556 7.676-64.103 84.504-80.178 97.084h-41.462v19.281h139.792v-1.31c0.126 0 0.352-0.018 0.478-0.054l-0.478-3.242v-14.675h-42.157c18.785-27.355 45.715-60.427 57.221-76.286l56.3 50.818h-33.478l-4.705 19.299h122.606l-0.921-1.372c0.108 0 0.298-0.036 0.425-0.036l-8.751-12.625c-0.072 0-0.207-0.036-0.28-0.054l-3.531-5.202h-22.614c-2.917-0.668-5.518-1.228-7.243-1.581zM390.695 111.341l-10.269 0.759-9.528 0.831-0.091 20.618 12.065-1.481 10.829-0.533-3.007-20.194zM392.844 145.596l-18.803 1.517-0.497 87.114c4.308-0.849 37.515-3.982 41.173-4.109l-21.873-84.522z" />
<glyph unicode="&#xe61b;" d="M256.014 433.445c-122.823 0-222.391-99.568-222.391-222.391 0-122.841 99.568-222.391 222.391-222.391 122.823 0 222.373 99.55 222.373 222.391 0 122.823-99.559 222.391-222.373 222.391zM384.824 265.818c-14.856-83.7-97.843-154.549-122.805-170.742-24.98-16.156-47.748 6.512-56.002 23.635-9.456 19.543-37.795 125.496-45.209 134.284-7.423 8.788-29.685-8.787-29.685-8.787l-10.792 14.179c0 0 45.209 53.979 79.609 60.752 36.476 7.125 36.423-56.029 45.209-91.106 8.48-33.939 14.179-53.32 21.594-53.32 7.423 0 21.594 18.893 37.109 47.91 15.543 29.035-0.668 54.683-31.049 36.44 12.156 72.872 126.878 90.401 112.022 6.756z" />
<glyph unicode="&#xe61c;" d="M256.005 433.445c-122.823 0-222.391-99.568-222.391-222.391 0-122.841 99.559-222.391 222.391-222.391 122.823 0 222.391 99.55 222.391 222.391 0 122.823-99.577 222.391-222.391 222.391zM342.613 117.284c-30.291 0.108-49.617 13.827-62.793 44.505l-3.351 7.459-29.125 66.397c-9.347 22.767-32.918 38.066-58.648 38.066-35.329 0-64.067-28.773-64.067-64.103 0-35.348 28.746-64.121 64.067-64.121 23.951 0 45.733 13.212 56.851 34.418 0.388 0.74 1.165 1.219 1.996 1.165 0.849-0.018 1.589-0.515 1.923-1.291l11.767-27.166c0.316-0.759 0.19-1.608-0.316-2.24-17.8-21.692-44.135-34.129-72.213-34.129-51.487 0-93.364 41.895-93.364 93.363 0 51.487 41.886 93.382 93.364 93.382 38.978 0 70.434-20.988 86.292-57.564 0.163-0.388 15.967-37.379 29.848-69.052 8.2-18.712 14.748-30.11 36.287-30.832 20.564-0.74 35.627 11.289 35.627 28.014 0 14.838-9.221 18.541-30.11 25.486-36.052 11.885-55.596 24.005-55.596 53.942 0 29.27 20.193 48.172 51.468 48.172 20.527 0 35.591-9.013 46.058-27.59 0.28-0.515 0.352-1.129 0.18-1.698-0.163-0.551-0.56-1.038-1.093-1.31l-19.489-9.97c-0.949-0.497-2.132-0.19-2.755 0.668-6.647 9.293-14.043 13.439-23.986 13.439-12.969 0-22.388-8.841-22.388-21.043 0-15.046 11.659-18.713 30.976-24.781 2.519-0.776 5.166-1.643 7.884-2.537 30.317-9.88 47.892-21.783 47.892-53.573-0.027-31.627-27.175-55.478-63.19-55.478z" />
<glyph unicode="&#xe61d;" d="M256.005 433.445c-122.823 0-222.391-99.568-222.391-222.391 0-122.841 99.568-222.391 222.391-222.391 122.805 0 222.373 99.55 222.373 222.391 0 122.814-99.577 222.391-222.373 222.391zM379.866 103.033c0-9.898-8.219-17.899-18.342-17.899h-211.49c-10.142 0-18.342 8.010-18.342 17.899v213.938c0 9.88 8.2 17.899 18.342 17.899h211.481c10.124 0 18.342-8.029 18.342-17.899v-213.938zM298.921 241.209c-19.877 0-28.791-10.918-33.776-18.613v-0.37h-0.244c0.091 0.108 0.18 0.244 0.244 0.37v15.967h-37.479c0.496-10.566 0-112.744 0-112.744h37.479v62.974c0 3.387 0.244 6.719 1.238 9.139 2.719 6.719 8.887 13.728 19.227 13.728 13.583 0 19.002-10.349 19.002-25.504v-60.327h37.479v64.635c-0.009 34.644-18.514 50.745-43.168 50.745zM188.425 292.948c-12.815 0-21.214-8.435-21.214-19.498 0-10.81 8.128-19.489 20.718-19.489h0.244c13.068 0 21.205 8.679 21.205 19.489-0.244 11.063-8.128 19.498-20.952 19.498zM169.441 238.563h37.488v-112.744h-37.488v112.744z" />
<glyph unicode="&#xe61f;" d="M256.005 433.426c-122.823 0-222.391-99.586-222.391-222.391 0-122.823 99.559-222.373 222.391-222.373 122.823 0 222.391 99.55 222.391 222.373 0 122.805-99.577 222.391-222.391 222.391zM370.193 158.52v-56.282h-0.036l0.036-5.094c-54.611-27.572-145.256-35.42-197.528-0.163-31.672 21.358-62.883 63.813-61.177 117.549 1.626 51.007 34.697 96.687 80.178 119.68 52.299 26.461 131.249 21.449 177.272-16.654l-27.13-27.644-17.565-4.994 9.347 16.969c-13.402 13.511-28.818 23.282-45.769 28.719-27.057 8.643-52.001 3.865-72.799-6.313-42.6-20.853-67.787-71.373-58.016-124.8 10.322-56.3 53.87-101.455 111.010-106.205 16.825-1.427 35.257-0.578 51.577 3.721 11.587 3.739 11.514 4.868 11.514 11.903v49.599l-57.221-1.698 29.459 16.599h79.537l-12.688-14.892z" />
<glyph unicode="&#xe620;" d="M129 234.525h15.858v-42.898h-15.858v42.898zM269.615 234.896h15.877v-42.898h-15.877v42.898zM256.005 433.426c-122.823 0-222.391-99.586-222.391-222.391 0-122.823 99.568-222.373 222.391-222.373 122.823 0 222.391 99.55 222.391 222.373 0 122.805-99.577 222.391-222.391 222.391zM175.267 166.269h-77.225v94.348h46.817v41.227h30.407v-135.575zM222.436 165.916h-31.482v94.889h31.483v-94.889zM222.436 274.425h-31.482v25.738h31.483v-25.738zM315.899 124.671h-77.767v26.479h47.359v14.766h-46.835v94.33h77.243v-135.575zM409.163 124.671h-77.767v26.479h47.359v14.766h-46.817v94.33h77.225v-135.575zM362.897 234.896h15.858v-42.898h-15.858v42.898z" />
<glyph unicode="&#xe622;" d="M256.005 433.426c-122.823 0-222.391-99.586-222.391-222.391 0-122.823 99.568-222.373 222.391-222.373 122.823 0 222.391 99.55 222.391 222.373 0 122.805-99.577 222.391-222.391 222.391zM314.86 211.966h-38.509c0-61.538 0-137.336 0-137.336h-57.077c0 0 0 75.022 0 137.336h-27.148v48.488h27.148v31.419c0 22.487 10.675 57.591 57.61 57.591l42.265-0.163v-47.097c0 0-25.702 0-30.688 0-5.012 0-12.101-2.502-12.101-13.195v-28.565h43.512l-5.012-48.479z" />
<glyph unicode="&#xe623;" d="M256.005 433.426c-122.823 0-222.391-99.586-222.391-222.391 0-122.823 99.559-222.373 222.391-222.373 122.841 0 222.391 99.55 222.391 222.373 0 122.805-99.559 222.391-222.391 222.391zM315.781 81.494c-9.175 0-59.904 1.201-72.863 1.201-12.951 0-80.485 21.060-80.485 95.36 0 13.231-0.009 26.534-0.045 39.773-0.054 12.345-0.307 24.673-0.352 36.937-0.009 3.577-0.027 7.161-0.045 10.738-0.090 18.713-1.671 39.782 4.344 57.754 4.606 13.709 15.498 19.191 28.917 19.191 32.458 0 34.625-33.090 34.715-66.325h93.806c14.856 0 25.947-15.064 25.947-38.12 0-23.038-24.041-28.204-36.621-28.204h-84.17c-0.424-14.106-0.885-25.594-0.885-32.575 0-14.675 5.734-30.57 41.579-30.57h50.375c12.581 0 31.238-9.528 31.238-36.142 0-26.579-26.308-29.017-35.456-29.017z" />
<glyph unicode="&#xe624;" d="M256.005 433.426c-122.823 0-222.391-99.586-222.391-222.391 0-122.823 99.568-222.373 222.391-222.373 122.823 0 222.391 99.55 222.391 222.373 0 122.805-99.577 222.391-222.391 222.391zM170.724 142.137c-38.662 0-70 31.311-70 69.973 0 38.68 31.338 69.991 70 69.991 38.662 0 69.991-31.311 69.991-69.991-0.009-38.662-31.329-69.973-69.991-69.973zM346.351 142.137c-38.662 0-69.991 31.311-69.991 69.973 0 38.68 31.329 69.991 69.991 69.991 38.644 0 69.991-31.311 69.991-69.991 0-38.662-31.347-69.973-69.991-69.973z" />
<glyph unicode="&#xe625;" d="M256.014 433.426c-122.823 0-222.391-99.586-222.391-222.391 0-122.823 99.568-222.373 222.391-222.373 122.823 0 222.373 99.55 222.373 222.373 0 122.805-99.559 222.391-222.373 222.391zM368.036 255.875c0.118-2.403 0.163-4.814 0.163-7.252 0-74.064-56.372-159.453-159.453-159.453-31.645 0-61.114 9.275-85.913 25.169 4.389-0.515 8.842-0.776 13.366-0.776 26.262 0 50.429 8.959 69.603 23.986-24.519 0.461-45.209 16.671-52.344 38.933 3.414-0.668 6.927-1.002 10.54-1.002 5.112 0 10.060 0.668 14.766 1.959-25.649 5.147-44.966 27.816-44.966 54.945 0 0.244 0 0.478 0.009 0.722 7.55-4.2 16.193-6.719 25.387-7.017-15.046 10.070-24.935 27.202-24.935 46.655 0 10.269 2.763 19.904 7.586 28.177 27.644-33.903 68.944-56.219 115.526-58.549-0.957 4.091-1.454 8.381-1.454 12.77 0 30.94 25.089 56.038 56.047 56.038 16.12 0 30.678-6.81 40.902-17.692 12.77 2.501 24.764 7.179 35.591 13.601-4.2-13.095-13.077-24.077-24.655-31.004 11.352 1.355 22.154 4.371 32.196 8.824-7.496-11.262-17.005-21.133-27.961-29.035z" />
<glyph unicode="&#xe626;" d="M265.541 209.979c1.797 0.596 3.613 1.129 5.437 1.661-3.459 7.83-7.234 15.678-11.18 23.427-70.976-21.259-139.079-19.724-141.518-19.633-0.045-1.481-0.118-2.908-0.118-4.389 0-35.42 13.357-67.697 35.321-92.108-0.018 0.036-0.054 0.072-0.054 0.072s37.732 66.911 112.112 90.97zM248.364 256.281c-23.851 42.392-49.337 76.981-51.17 79.428-38.446-18.152-67.137-53.572-76.078-96.262 3.63-0.036 61.069-0.758 127.248 16.834zM347.038 314.487c-24.276 21.394-56.147 34.382-91.034 34.382-11.198 0-22.063-1.354-32.494-3.865 2.077-2.772 27.978-37.127 51.54-80.422 52.019 19.516 71.652 49.4 71.987 49.906zM222.996 344.868c-0.162-0.018-0.298-0.036-0.46-0.108 0.262 0.072 0.424 0.108 0.424 0.108h0.036zM171.275 102.382l0.027 0.054c-1.020 0.795-2.104 1.517-3.107 2.366 1.833-1.49 3.079-2.421 3.079-2.421zM285.654 244.054c3.206-6.583 6.295-13.267 9.175-19.986 1.002-2.42 1.996-4.778 2.962-7.143 47.359 5.961 94.013-4.073 96.010-4.479-0.316 32.684-12.012 62.667-31.347 86.156-0.271-0.37-22.37-32.322-76.8-54.548zM279.459 188.494c-81.352-28.366-107.904-85.515-108.156-86.058 23.381-18.252 52.733-29.224 84.694-29.224 19.083 0 37.272 3.884 53.816 10.918-2.050 12.048-10.051 54.259-29.459 104.671-0.289-0.118-0.587-0.207-0.894-0.307zM256.005 433.426c-122.823 0-222.391-99.586-222.391-222.391 0-122.823 99.559-222.373 222.391-222.373 122.823 0 222.391 99.55 222.391 222.373 0 122.805-99.577 222.391-222.391 222.391zM404.711 148.207c-4.037-9.582-9.049-18.803-14.883-27.409-5.771-8.553-12.399-16.581-19.706-23.887-7.306-7.288-15.326-13.917-23.869-19.706-8.625-5.825-17.873-10.829-27.428-14.883-9.753-4.109-19.95-7.27-30.317-9.401-10.639-2.185-21.575-3.296-32.512-3.296s-21.874 1.111-32.512 3.296c-10.368 2.132-20.582 5.292-30.317 9.401-9.573 4.055-18.812 9.067-27.436 14.883-8.535 5.789-16.572 12.418-23.869 19.706-7.306 7.306-13.935 15.326-19.706 23.887-5.825 8.606-10.829 17.837-14.883 27.409-4.118 9.753-7.288 19.95-9.419 30.336-2.159 10.639-3.26 21.557-3.26 32.494s1.102 21.874 3.26 32.494c2.132 10.386 5.302 20.6 9.419 30.335 4.055 9.582 9.067 18.821 14.883 27.436 5.771 8.553 12.4 16.563 19.706 23.888 7.297 7.288 15.326 13.899 23.869 19.688 8.625 5.834 17.863 10.846 27.436 14.901 9.736 4.127 19.95 7.288 30.317 9.402 10.638 2.167 21.576 3.278 32.512 3.278s21.873-1.111 32.512-3.278c10.368-2.114 20.564-5.274 30.317-9.402 9.564-4.055 18.803-9.067 27.428-14.901 8.534-5.789 16.563-12.399 23.869-19.688 7.306-7.324 13.935-15.326 19.706-23.888 5.834-8.606 10.846-17.854 14.883-27.436 4.127-9.736 7.288-19.95 9.401-30.335 2.185-10.62 3.296-21.557 3.296-32.494s-1.111-21.856-3.296-32.494c-2.113-10.386-5.265-20.582-9.401-30.336zM306.2 195.178c18.080-49.689 25.413-90.149 26.832-98.457 30.94 20.88 52.931 54.042 59.055 92.461-2.836 0.912-41.399 13.122-85.885 5.997z" />
<glyph unicode="&#xe7e2;" d="M471.017 47.438l-114.83 114.831c19.146 27.779 30.426 61.385 30.426 97.599 0 95.089-77.351 172.449-172.449 172.449s-172.44-77.361-172.44-172.449 77.352-172.449 172.44-172.449c36.214 0 69.82 11.28 97.599 30.426l114.822-114.822c5.933-5.933 13.817-9.202 22.216-9.202 8.39 0 16.274 3.26 22.207 9.202s9.202 13.817 9.202 22.207-3.26 16.274-9.194 22.207zM214.163 105.481c-85.127 0-154.387 69.26-154.387 154.387s69.269 154.377 154.387 154.377 154.387-69.26 154.387-154.387-69.26-154.377-154.387-154.377zM458.247 15.793c-5.058-5.058-13.844-5.039-18.884 0l-113.205 113.196c6.774 5.798 13.077 12.111 18.884 18.884l113.205-113.205c5.202-5.202 5.202-13.673 0-18.875zM302.045 268.898h-78.841v78.841c0 4.994-4.037 9.031-9.031 9.031s-9.031-4.037-9.031-9.031v-78.841h-78.841c-4.994 0-9.031-4.037-9.031-9.031s4.037-9.031 9.031-9.031h78.841v-78.841c0-4.994 4.037-9.031 9.031-9.031s9.031 4.037 9.031 9.031v78.841h78.841c4.994 0 9.031 4.037 9.031 9.031s-4.037 9.031-9.031 9.031z" />
<glyph unicode="&#xe818;" d="M256.474 313.584c-49.843 0-90.392-40.55-90.392-90.392 0-49.851 40.549-90.401 90.392-90.401 49.851 0 90.401 40.55 90.401 90.401-0.009 49.842-40.558 90.392-90.401 90.392zM256.474 150.861c-39.891 0-72.33 32.449-72.33 72.339 0 39.882 32.448 72.33 72.33 72.33 39.891 0 72.339-32.448 72.339-72.33-0.009-39.891-32.458-72.339-72.339-72.339zM256.474 269.205c-25.377 0-46.013-20.645-46.013-46.014s20.645-46.014 46.013-46.014 46.022 20.645 46.022 46.014-20.654 46.014-46.022 46.014zM256.474 195.24c-15.416 0-27.951 12.544-27.951 27.951s12.544 27.951 27.951 27.951c15.416 0 27.961-12.544 27.961-27.951s-12.544-27.951-27.961-27.951zM478.991 227.292c-45.995 90.203-131.267 146.241-222.517 146.241s-176.513-56.038-222.517-146.241c-1.319-2.574-1.319-5.626 0-8.2 46.005-90.202 131.267-146.24 222.517-146.24s176.513 56.038 222.517 146.24c1.318 2.574 1.318 5.618 0 8.2zM256.474 90.904c-83.041 0-160.934 50.565-204.292 132.279 43.358 81.722 121.251 132.279 204.292 132.279s160.934-50.565 204.292-132.279c-43.358-81.714-121.251-132.279-204.293-132.279z" />
<glyph unicode="&#xe81a;" d="M459.512 234.264h-67.408v8.869c0 51.468 19.029 58.404 37.632 58.404 10.368 0 18.803 8.435 18.803 18.803v52.732c0 10.368-8.435 18.803-18.803 18.803-45.86 0-82.951-14.82-110.251-44.053-26.958-28.855-40.622-77.866-40.622-145.68v-133.371c0-10.368 8.444-18.803 18.83-18.803h161.81c10.386 0 18.821 8.435 18.821 18.803v146.674c0.009 10.376-8.435 18.821-18.812 18.821zM460.45 68.76c0-0.505-0.425-0.921-0.939-0.921h-161.81c-0.515 0-0.949 0.425-0.949 0.921v133.371c0 63.137 12.048 108.048 35.808 133.48 23.779 25.467 56.471 38.382 97.174 38.382 0.515 0 0.921-0.406 0.921-0.921v-52.724c0-0.515-0.416-0.921-0.921-0.921-36.838 0-55.514-25.666-55.514-76.286v-17.819c0-4.94 4.001-8.941 8.941-8.941h76.349c0.515 0 0.939-0.433 0.939-0.939v-146.683zM217.306 234.264h-67.408v8.869c0 51.468 19.029 58.404 37.642 58.404 10.368 0 18.803 8.435 18.803 18.803v52.732c0 10.368-8.435 18.803-18.803 18.803-46.248 0-83.457-14.838-110.595-44.090-26.741-28.881-40.297-77.884-40.297-145.654v-133.371c0-10.368 8.444-18.803 18.83-18.803h161.828c10.376 0 18.812 8.435 18.812 18.803v146.683c0.009 10.376-8.435 18.821-18.812 18.821zM218.245 68.76c0-0.497-0.424-0.921-0.93-0.921h-161.838c-0.524 0-0.949 0.416-0.949 0.921v133.371c0 63.118 11.957 108.030 35.538 133.488 23.608 25.459 56.408 38.364 97.472 38.364 0.515 0 0.921-0.406 0.921-0.921v-52.724c0-0.505-0.424-0.921-0.921-0.921-36.838 0-55.523-25.666-55.523-76.286v-17.81c0-4.94 4.001-8.941 8.941-8.941h76.349c0.506 0 0.93-0.433 0.93-0.939v-146.683z" />
<glyph unicode="&#xe81e;" d="M369.679 274.651c0 68.853-51.577 124.864-114.966 124.864h-107.226c-63.398 0-114.966-56.020-114.966-124.864 0-57.835 36.296-107.57 87.313-121.189v-75.753c0-3.549 2.077-6.774 5.311-8.228 1.201-0.542 2.457-0.804 3.721-0.804 2.149 0 4.29 0.767 5.97 2.258l89.516 78.851h30.363c63.389 0 114.966 56.011 114.966 124.864zM220.928 167.849c-2.195 0-4.326-0.804-5.97-2.258l-77.071-67.896v62.947c0 4.326-3.071 8.046-7.315 8.868-46.347 8.986-79.998 53.202-79.998 105.14 0 58.892 43.466 106.802 96.904 106.802h107.226c53.437 0 96.904-47.91 96.904-106.802s-43.466-106.802-96.904-106.802h-33.776zM395.923 265.692c-4.994 0-9.031-4.046-9.031-9.031s4.037-9.031 9.031-9.031c36.44 0 66.081-32.792 66.081-73.097 0-39.719-28.114-71.807-64.004-73.043-4.868-0.171-8.724-4.154-8.724-9.031v-29.071l-33.758 35.257c-1.707 1.779-4.064 2.791-6.529 2.791h-29.107c-20.934 0-40.171 10.647-52.787 29.207-2.808 4.127-8.426 5.202-12.544 2.393-4.127-2.8-5.202-8.417-2.403-12.544 15.786-23.246 41.109-37.118 67.724-37.118h25.251l46.645-48.714c1.734-1.815 4.109-2.791 6.529-2.791 1.129 0 2.276 0.207 3.368 0.65 3.423 1.373 5.663 4.696 5.663 8.381v43.313c41.425 6.005 72.728 44.009 72.728 90.311 0.018 50.276-37.732 91.169-84.134 91.169zM290.151 301.852c0 4.985-4.037 9.031-9.031 9.031h-161.024c-4.994 0-9.031-4.046-9.031-9.031s4.037-9.031 9.031-9.031h161.015c4.994 0 9.040 4.046 9.040 9.031zM199.136 253.59h-79.040c-4.994 0-9.031-4.046-9.031-9.031s4.037-9.031 9.031-9.031h79.040c4.994 0 9.031 4.046 9.031 9.031s-4.037 9.031-9.031 9.031z" />
<glyph unicode="&#xf002;" d="M329.143 237.714q0 52.857-37.572 90.428t-90.428 37.571-90.428-37.571-37.572-90.428 37.572-90.428 90.428-37.572 90.428 37.572 37.572 90.428zM475.428 0q0-14.857-10.857-25.714t-25.714-10.857q-15.428 0-25.714 10.857l-98 97.714q-51.143-35.428-114-35.428-40.857 0-78.143 15.857t-64.285 42.857-42.857 64.286-15.857 78.143 15.857 78.143 42.857 64.285 64.285 42.857 78.143 15.857 78.143-15.857 64.286-42.857 42.857-64.285 15.857-78.143q0-62.857-35.428-114l98-98q10.572-10.572 10.572-25.714z" horiz-adv-x="476" />
<glyph unicode="&#xf004;" d="M256 0q-7.428 0-12.572 5.143l-178.286 172q-2.857 2.286-7.857 7.428t-15.857 18.714-19.428 27.857-15.286 34.572-6.715 39.428q0 62.857 36.285 98.285t100.285 35.429q17.714 0 36.143-6.143t34.285-16.571 27.286-19.572 21.714-19.428q10.286 10.285 21.714 19.428t27.286 19.572 34.286 16.571 36.143 6.143q64 0 100.286-35.429t36.286-98.285q0-63.143-65.428-128.572l-178-171.428q-5.143-5.143-12.572-5.143z" />
<glyph unicode="&#xf017;" d="M256 320v-128q0-4-2.571-6.572t-6.571-2.572h-91.428q-4 0-6.572 2.572t-2.571 6.572v18.286q0 4 2.571 6.572t6.572 2.571h64v100.572q0 4 2.571 6.572t6.571 2.571h18.286q4 0 6.572-2.571t2.572-6.572zM374.857 219.429q0 42.286-20.857 78t-56.572 56.572-78 20.857-78-20.857-56.572-56.572-20.857-78 20.857-78 56.572-56.572 78-20.857 78 20.857 56.572 56.572 20.857 78zM438.857 219.429q0-59.714-29.428-110.143t-79.857-79.857-110.143-29.428-110.143 29.428-79.857 79.857-29.428 110.143 29.428 110.143 79.857 79.857 110.143 29.428 110.143-29.428 79.857-79.857 29.428-110.143z" />
<glyph unicode="&#xf029;" d="M109.715 146.286v-36.572h-36.572v36.572h36.572zM109.715 365.714v-36.571h-36.572v36.571h36.572zM329.143 365.714v-36.571h-36.572v36.571h36.572zM36.572 73.429h109.715v109.428h-109.715v-109.428zM36.572 292.572h109.715v109.714h-109.715v-109.714zM256 292.572h109.714v109.714h-109.714v-109.714zM182.857 219.429v-182.857h-182.857v182.857h182.857zM329.143 73.143v-36.572h-36.572v36.572h36.572zM402.286 73.143v-36.572h-36.572v36.572h36.572zM402.286 219.429v-109.714h-109.714v36.572h-36.572v-109.714h-36.572v182.857h109.714v-36.572h36.572v36.572h36.572zM182.857 438.857v-182.857h-182.857v182.857h182.857zM402.286 438.857v-182.857h-182.857v182.857h182.857z" horiz-adv-x="403" />
<glyph unicode="&#xf067;" d="M402.286 265.143v-54.857q0-11.428-8-19.428t-19.428-8h-118.857v-118.857q0-11.428-8-19.428t-19.428-8h-54.857q-11.429 0-19.429 8t-8 19.428v118.857h-118.857q-11.428 0-19.428 8t-8 19.428v54.857q0 11.429 8 19.429t19.428 8h118.857v118.857q0 11.429 8 19.429t19.428 8h54.857q11.429 0 19.429-8t8-19.429v-118.857h118.857q11.428 0 19.428-8t8-19.428z" horiz-adv-x="403" />
<glyph unicode="&#xf068;" d="M402.286 265.143v-54.857q0-11.428-8-19.428t-19.428-8h-347.428q-11.428 0-19.428 8t-8 19.428v54.857q0 11.429 8 19.429t19.428 8h347.428q11.428 0 19.428-8t8-19.428z" horiz-adv-x="403" />
<glyph unicode="&#xf06e;" d="M475.428 201.143q-43.428 67.428-108.857 100.857 17.428-29.714 17.428-64.285 0-52.857-37.572-90.428t-90.428-37.572-90.428 37.572-37.572 90.428q0 34.572 17.428 64.286-65.428-33.428-108.857-100.857 38-58.572 95.285-93.286t124.143-34.714 124.143 34.714 95.286 93.286zM269.714 310.857q0 5.714-4 9.714t-9.714 4q-35.714 0-61.286-25.571t-25.572-61.286q0-5.714 4-9.714t9.714-4 9.714 4 4 9.714q0 24.572 17.428 42t42 17.428q5.714 0 9.714 4t4 9.714zM512 201.143q0-9.714-5.714-19.714-40-65.714-107.572-105.286t-142.714-39.572-142.714 39.714-107.572 105.143q-5.715 10-5.715 19.714t5.715 19.714q40 65.428 107.572 105.143t142.714 39.714 142.714-39.714 107.572-105.143q5.714-10 5.714-19.714z" />
<glyph unicode="&#xf070;" d="M158.571 94l22.285 40.286q-24.857 18-38.857 45.428t-14 58q0 34.572 17.429 64.286-65.428-33.428-108.857-100.857 47.715-73.714 122-107.143zM269.714 310.857q0 5.714-4 9.714t-9.714 4q-35.714 0-61.286-25.571t-25.572-61.286q0-5.714 4-9.714t9.714-4 9.714 4 4 9.714q0 24.572 17.428 42t42 17.428q5.714 0 9.714 4t4 9.714zM373.428 365.429q0-2-0.286-2.572-30-53.714-90-161.714t-90.286-162l-14-25.428q-2.857-4.572-8-4.572-3.429 0-38.286 20-4.572 2.857-4.572 8 0 3.428 12.572 24.857-40.857 18.572-75.285 49.428t-59.572 70q-5.715 8.857-5.715 19.714t5.715 19.714q43.715 67.143 108.572 106t141.714 38.857q25.428 0 51.428-4.857l15.428 27.714q2.857 4.572 8 4.572 1.428 0 5.143-1.714t8.857-4.429 9.428-5.286 9-5.285 5.572-3.286q4.572-2.857 4.572-7.714zM384 237.714q0-39.714-22.572-72.428t-59.714-47l80 143.428q2.286-12.857 2.286-24zM512 201.143q0-10-5.714-19.714-11.143-18.286-31.143-41.428-42.857-49.143-99.286-76.286t-119.857-27.143l21.143 37.714q60.572 5.143 112.143 39.143t86.143 87.714q-32.857 51.143-80.572 84l18 32q27.143-18.286 52.143-43.714t41.286-52.572q5.714-9.714 5.714-19.714z" />
<glyph unicode="&#xf0c9;" d="M438.857 91.429v-36.572q0-7.428-5.428-12.857t-12.857-5.428h-402.286q-7.428 0-12.857 5.428t-5.428 12.857v36.572q0 7.428 5.428 12.857t12.857 5.428h402.286q7.428 0 12.857-5.428t5.428-12.857zM438.857 237.714v-36.572q0-7.428-5.428-12.857t-12.857-5.428h-402.286q-7.428 0-12.857 5.428t-5.428 12.857v36.572q0 7.428 5.428 12.857t12.857 5.429h402.286q7.428 0 12.857-5.428t5.428-12.857zM438.857 384v-36.572q0-7.428-5.428-12.857t-12.857-5.428h-402.286q-7.428 0-12.857 5.428t-5.428 12.857v36.572q0 7.428 5.428 12.857t12.857 5.428h402.286q7.428 0 12.857-5.428t5.428-12.857z" />
<glyph unicode="&#xf104;" d="M179.143 320q0-3.714-2.857-6.571l-112.285-112.286 112.285-112.286q2.857-2.857 2.857-6.572t-2.857-6.572l-14.286-14.286q-2.857-2.857-6.572-2.857t-6.572 2.857l-133.143 133.143q-2.857 2.857-2.857 6.572t2.857 6.572l133.143 133.143q2.857 2.857 6.572 2.857t6.572-2.857l14.286-14.286q2.857-2.857 2.857-6.571z" horiz-adv-x="183" />
<glyph unicode="&#xf105;" d="M170 201.143q0-3.714-2.857-6.572l-133.143-133.143q-2.857-2.857-6.572-2.857t-6.572 2.857l-14.286 14.286q-2.857 2.857-2.857 6.572t2.857 6.572l112.285 112.286-112.285 112.286q-2.857 2.857-2.857 6.572t2.857 6.572l14.285 14.286q2.857 2.857 6.572 2.857t6.572-2.857l133.143-133.143q2.857-2.857 2.857-6.572z" horiz-adv-x="183" />
<glyph unicode="&#xf106;" d="M307.143 137.143q0-3.714-2.857-6.572l-14.286-14.286q-2.857-2.857-6.572-2.857t-6.572 2.857l-112.286 112.286-112.285-112.286q-2.857-2.857-6.572-2.857t-6.572 2.857l-14.285 14.286q-2.857 2.857-2.857 6.572t2.857 6.572l133.143 133.143q2.857 2.857 6.571 2.857t6.572-2.857l133.143-133.143q2.857-2.857 2.857-6.572z" horiz-adv-x="329" />
<glyph unicode="&#xf107;" d="M307.143 265.143q0-3.714-2.857-6.572l-133.143-133.143q-2.857-2.857-6.571-2.857t-6.572 2.857l-133.143 133.143q-2.857 2.857-2.857 6.572t2.857 6.572l14.285 14.286q2.857 2.857 6.572 2.857t6.572-2.857l112.285-112.286 112.285 112.286q2.857 2.857 6.572 2.857t6.572-2.857l14.286-14.286q2.857-2.857 2.857-6.572z" horiz-adv-x="329" />
<glyph unicode="&#xf10c;" d="M219.429 374.857q-42.285 0-78-20.857t-56.572-56.572-20.857-78 20.857-78 56.572-56.572 78-20.857 78 20.857 56.572 56.572 20.857 78-20.857 78-56.572 56.572-78 20.857zM438.857 219.429q0-59.714-29.428-110.143t-79.857-79.857-110.143-29.428-110.143 29.428-79.857 79.857-29.428 110.143 29.428 110.143 79.857 79.857 110.143 29.428 110.143-29.428 79.857-79.857 29.428-110.143z" />
</font>
</defs>
</svg>
